Mission Impossible Fallout 2018 IMAX 720p WEB-DL x264 [email protected]

  • Category Movies
  • Type HD
  • Language English
  • Total size 1.2 GB
  • Uploaded By iMaX100
  • Downloads 84
  • Last checked 1 day ago
  • Date uploaded 4 days ago
  • Seeders 10
  • Leechers 9

Mission: Impossible - Fallout

AdventureActionThriller

When an IMF mission ends badly, the world is faced with dire consequences. As Ethan Hunt takes it upon himself to fulfil his original briefing, the CIA begin to question his loyalty and his motives. The IMF team find themselves in a race against time, hunted by assassins while trying to prevent a global catastrophe.

Infohash : 613808A1451A5E809215EA4AD3774FA1F210FF94

Language: English

Genre: Action | Adventure | Thriller

Ethan Hunt and his IMF team, along with some familiar allies, race against time after a mission gone wrong.



Code:

Format : Matroska
Format version : Version 4 / Version 2
File size : 1.25 GiB
Duration : 2 h 27 min
Overall bit rate : 1 209 kb/s
Movie name : www.SANET.st
Encoded date : UTC 2018-11-06 17:02:07
Writing application : mkvmerge v19.0.0 ('Brave Captain') 64-bit
Writing library : libebml v1.3.5 + libmatroska v1.4.8

Video
ID : 1
Format : AVC
Format/Info : Advanced Video Codec
Format profile : [email protected]
Format settings : CABAC / 4 Ref Frames
Format settings, CABAC : Yes
Format settings, RefFrames : 4 frames
Codec ID : V_MPEG4/ISO/AVC
Duration : 2 h 27 min
Bit rate : 824 kb/s
Width : 1 280 pixels
Height : 674 pixels
Display aspect ratio : 1.899
Frame rate mode : Constant
Frame rate : 23.976 (24000/1001) FPS
Color space : YUV
Chroma subsampling : 4:2:0
Bit depth : 8 bits
Scan type : Progressive
Bits/(Pixel*Frame) : 0.040
Stream size : 870 MiB (68%)
Title : www.SANET.st
Writing library : x264 core 155 r2901 7d0ff22
Encoding settings : cabac=1 / ref=3 / deblock=1:0:0 / analyse=0x3:0x113 / me=hex / subme=7 / psy=1 / psy_rd=1.00:0.00 / mixed_ref=1 / me_range=16 / chroma_me=1 / trellis=1 / 8x8dct=1 / cqm=0 / deadzone=21,11 / fast_pskip=1 / chroma_qp_offset=-2 / threads=12 / lookahead_threads=2 / sliced_threads=0 / nr=0 / decimate=1 / interlaced=0 / bluray_compat=0 / constrained_intra=0 / bframes=3 / b_pyramid=2 / b_adapt=1 / b_bias=0 / direct=1 / weightb=1 / open_gop=0 / weightp=2 / keyint=240 / keyint_min=23 / scenecut=40 / intra_refresh=0 / rc_lookahead=40 / rc=2pass / mbtree=1 / bitrate=824 / ratetol=1.0 / qcomp=0.60 / qpmin=0 / qpmax=69 / qpstep=4 / cplxblur=20.0 / qblur=0.5 / ip_ratio=1.40 / aq=1:1.00
Default : Yes
Forced : No

Audio
ID : 2
Format : AC-3
Format/Info : Audio Coding 3
Codec ID : A_AC3
Duration : 2 h 27 min
Bit rate mode : Constant
Bit rate : 384 kb/s
Channel(s) : 6 channels
Channel positions : Front: L C R, Side: L R, LFE
Sampling rate : 48.0 kHz
Frame rate : 31.250 FPS (1536 SPF)
Bit depth : 16 bits
Compression mode : Lossy
Stream size : 405 MiB (32%)
Title : www.SANET.st
Language : English
Service kind : Complete Main
Default : Yes
Forced : No


Files:

Mission Impossible Fallout 2018 IMAX 720p WEB-DL x264 [email protected]
  • Visit Like & Share www.MOVEY.CC.txt (0.1 KB)
  • www.MOVEY.CC - Mission Impossible Fallout 2018 IMAX 720p WEB-DL x264 [email protected] (1).mkv (1.2 GB)

There are currently no comments. Feel free to leave one :)

Code:

  • UDP://TRACKER.LEECHERS-PARADISE.ORG:6969/ANNOUNCE
Sitemap└ Specialty Services | Billionaire Boys Club | Zechsteiner Magnesiumöl Starter-Kit 1000 ml Sprühflasche, Magnesiumchlorid Star-Wars-Shop | Règlement | Audi 80 2,6 l V6, Typ B4 sehr guter Zustand + wenig Kilometer