The Walking Dead S09E05 1080p AMZN WEB-DL DD 5.1 x264 ESub [MW]

  • Category TV
  • Type HD
  • Language English
  • Total size 1.1 GB
  • Uploaded By moviezworldz
  • Downloads 80
  • Last checked 26 minutes ago
  • Date uploaded 12 hours ago
  • Seeders 41
  • Leechers 18

Infohash : 2DF40DDCE28BC8EE6B984B1556F8B7C11E22B904





General
Format : Matroska
Format version : Version 4 / Version 2
File size : 1.07 GiB
Duration : 45 min 24 s
Overall bit rate : 3 385 kb/s

Video
ID : 1
Format : AVC
Format/Info : Advanced Video Codec
Format profile : [email protected]
Format settings : CABAC / 4 Ref Frames
Format settings, CABAC : Yes
Format settings, RefFrames : 4 frames
Codec ID : V_MPEG4/ISO/AVC
Duration : 45 min 24 s
Bit rate : 3 000 kb/s
Width : 1 920 pixels
Height : 1 080 pixels
Display aspect ratio : 16:9
Frame rate mode : Constant
Frame rate : 23.976 (24000/1001) FPS
Color space : YUV
Chroma subsampling : 4:2:0
Bit depth : 8 bits
Scan type : Progressive
Bits/(Pixel*Frame) : 0.060
Stream size : 974 MiB (89%)
Writing library : x264 core 155 r2901 7d0ff22
Default : Yes
Forced : No

Audio
ID : 2
Format : AC-3
Format/Info : Audio Coding 3
Codec ID : A_AC3
Duration : 45 min 24 s
Bit rate mode : Constant
Bit rate : 384 kb/s
Channel(s) : 6 channels
Channel positions : Front: L C R, Side: L R, LFE
Sampling rate : 48.0 kHz
Frame rate : 31.250 FPS (1536 SPF)
Bit depth : 16 bits
Compression mode : Lossy
Stream size : 125 MiB (11%)
Language : English
Service kind : Complete Main
Default : Yes
Forced : No

Text
ID : 3
Format : UTF-8
Codec ID : S_TEXT/UTF8
Codec ID/Info : UTF-8 Plain Text
Duration : 45 min 7 s
Bit rate : 41 b/s
Count of elements : 697
Stream size : 13.7 KiB (0%)
Language : English
Default : Yes
Forced : No


Click To Enlarge Image







Files:

The Walking Dead S09E05 1080p AMZN WEB-DL DD 5.1 x264 ESub [MW]
  • The Walking Dead S09E05 1080p AMZN WEB-DL DD 5.1 x264 ESub [MW].mkv (1.1 GB)

There are currently no comments. Feel free to leave one :)

Code:

  • udp://tracker.coppersurfer.tk:6969/announce
  • udp://tracker.pirateparty.gr:6969/announce
  • udp://tracker.coppersurfer.tk:6969/announce
  • udp://tracker.tiny-vps.com:6969/announce
  • udp://9.rarbg.me:2740/announce
  • udp://9.rarbg.to:2790/announce
  • udp://public.popcorn-tracker.org:6969/announce
  • udp://tracker.vanitycore.co:6969/announce
  • udp://tracker.opentrackr.org:1337/announce
  • udp://open.stealth.si:80/announce
SitemapTemporada 1 | [ Download File ] | Browsers The Sims 5 Deluxe Edition MULTi-22 All DLC | Snowfall | Play Movie