The Etruscan Smile 2018 Movies BRRip x264 5.1 with Sample ☻rDX☻...

  • Category Movies
  • Type h.264/x264
  • Language English
  • Total size 954.4 MB
  • Uploaded By nehalpuja
  • Downloads 0
  • Last checked 6 minutes ago
  • Date uploaded 6 minutes ago
  • Seeders 0
  • Leechers 0

Infohash : 86595F7FAD82D0DFF0D39D097F030F61F1901816

The Etruscan Smile 2018 Movies BRRip x264 5.1 with Sample ☻rDX☻
===============================================================================================

SCREEN SHOTS:



or

http://iphonehosting.eu/2018/9/a/datacable/1.html

File size : 945 MiB
Duration : 1 h 47 min
Overall bit rate mode : Constant
Overall bit rate : 1 225 kb/s
Movie name : The Etruscan Smile 2018 Movies BRRip x264 5.1 ☻rDX☻

Video
ID : 2
Format : AVC
Format/Info : Advanced Video Codec
Format profile : [email protected]
Format settings, CABAC : Yes
Format settings, ReFrames : 2 frames
Format settings, GOP : M=1, N=12
Codec ID : V_MPEG4/ISO/AVC
Duration : 1 h 47 min
Bit rate mode : Constant
Bit rate : 842 kb/s
Width : 720 pixels
Height : 304 pixels
Display aspect ratio : 2.35:1
Frame rate mode : Constant
Frame rate : 23.976 FPS
Color space : YUV
Chroma subsampling : 4:2:0
Bit depth : 8 bits
Scan type : Progressive
Bits/(Pixel*Frame) : 0.160
Stream size : 630 MiB (67%)
Title : ☻rDX☻
Default : Yes
Forced : No

Audio
ID : 1
Format : AC-3
Format/Info : Audio Coding 3
Mode extension : CM (complete main)
Format settings, Endianness : Big
Codec ID : A_AC3
Duration : 1 h 47 min
Bit rate mode : Constant
Bit rate : 384 kb/s
Channel(s) : 6 channels
Channel positions : Front: L C R, Side: L R, LFE
Sampling rate : 48.0 kHz
Frame rate : 31.250 FPS (1536 spf)
Bit depth : 16 bits
Compression mode : Lossy
Stream size : 296 MiB (31%)
Title : ☻rDX☻
Default : Yes
Forced : No

http://www.imdb.com/title/tt5459382/

Files:

The Etruscan Smile 2018 Movies BRRip x264 5.1 with Sample ☻rDX☻
  • Sample ~ The Etruscan Smile 2018 Movies BRRip x264 5.1 ☻rDX☻.mkv (9.0 MB)
  • The Etruscan Smile 2018 Movies BRRip x264 5.1 ☻rDX☻.mkv (945.3 MB)

There are currently no comments. Feel free to leave one :)

Code:

  • udp://tracker.coppersurfer.tk:6969/announce
  • udp://tracker.leechers-paradise.org:6969/announce
  • udp://tracker.pirateparty.gr:6969/announce
  • udp://eddie4.nl:6969/announce
  • udp://tracker.zer0day.to:1337/announce
  • udp://9.rarbg.me:2710/announce
  • udp://9.rarbg.to:2710/announce
  • udp://public.popcorn-tracker.org:6969/announce
  • udp://p4p.arenabg.ch:1337/announce
  • udp://tracker.vanitycore.co:6969/announce
  • udp://ipv4.tracker.harry.lu:80/announce
  • udp://tracker.opentrackr.org:1337/announce
  • udp://p4p.arenabg.com:1337/announce
  • udp://shadowshq.yi.org:6969/announce
SitemapThe Railway Man | Megaman Star Force | Флэш / The Flash [05x01-05 из 22] (2018) WEBRip | Gears Media La Extraña Vida de Timothy Green | Rolling Stone 500 Greatest Songs of All Time - Songs 401-500 | [WoodmanCastingX] Lena Reif (30 11 2018) rq mp4 added by rqj93067 78.993k*