Sonu Ke Titu Ki Sweety (2018) 720p Hindi BDRip x264 AAC ESub by F...

  • Category Movies
  • Type HD
  • Language Hindi
  • Total size 1.5 GB
  • Uploaded By shmasti
  • Downloads 22
  • Last checked 5 minutes ago
  • Date uploaded 14 hours ago
  • Seeders 5
  • Leechers 4

Sonu Ke Titu Ki Sweety

RomanceComedy

Titu is going to marry a perfect woman named Sweety. Titu's best-friend Sonu doubts Sweety's character and tries to break the marriage while Sweety tries to do opposite and which leads to war between Bromance and Romace.

Infohash : E958F426413E6CDB95F7368F05D74AB1E8509941



General
Complete name : Sonu Ke Titu Ki Sweety (2018) 720p Hindi BDRip x264 AAC ESub by Full4movies.mkv
Format : Matroska
Format version : Version 4 / Version 2
File size : 1.46 GiB
Duration : 2 h 18 min
Overall bit rate : 1 510 kb/s
Movie name : www.Full4movies.co
Encoded date : UTC 2018-10-04 17:34:50
Writing application : mkvmerge v8.1.0 ('Psychedelic Postcard') 32bit
Writing library : libebml v1.3.1 + libmatroska v1.4.2

Video
ID : 1
Format : AVC
Format/Info : Advanced Video Codec
Format profile : [email protected]
Format settings, CABAC : Yes
Format settings, RefFrames : 4 frames
Codec ID : V_MPEG4/ISO/AVC
Duration : 2 h 18 min
Bit rate : 1 302 kb/s
Width : 1 280 pixels
Height : 544 pixels
Display aspect ratio : 2.35:1
Frame rate mode : Constant
Frame rate : 24.000 FPS
Color space : YUV
Chroma subsampling : 4:2:0
Bit depth : 8 bits
Scan type : Progressive
Bits/(Pixel*Frame) : 0.078
Stream size : 1.26 GiB (86%)
Writing library : x264 core 155 r2901 7d0ff22
Default : Yes
Forced : No
Color range : Limited
Color primaries : BT.709
Transfer characteristics : BT.709
Matrix coefficients : BT.709

Audio
ID : 2
Format : AAC
Format/Info : Advanced Audio Codec
Format profile : LC
Codec ID : A_AAC
Duration : 2 h 18 min
Bit rate : 192 kb/s
Channel(s) : 6 channels
Channel positions : Front: L C R, Side: L R, LFE
Sampling rate : 48.0 kHz
Frame rate : 46.875 FPS (1024 SPF)
Compression mode : Lossy
Stream size : 189 MiB (13%)
Language : Hindi
Default : Yes
Forced : No

Text
ID : 3
Format : PGS
Muxing mode : zlib
Codec ID : S_HDMV/PGS
Codec ID/Info : Picture based subtitle format used on BDs/HD-DVDs
Duration : 2 h 14 min
Bit rate : 15.7 kb/s
Count of elements : 4314
Stream size : 15.2 MiB (1%)
Language : English
Default : Yes
Forced : No

Screen Shoots

Files:

  • Sonu Ke Titu Ki Sweety (2018) 720p Hindi BDRip x264 AAC ESub by Full4movies.mkv (1.5 GB)

There are currently no comments. Feel free to leave one :)

Code:

  • udp://tracker.coppersurfer.tk:6969/announce
  • udp://tracker.leechers-paradise.org:6969/announce
  • udp://tracker.pirateparty.gr:6969/announce
  • udp://tracker.coppersurfer.tk:6969
  • udp://open.demonii.si:1337/announce
  • udp://tracker.tiny-vps.com:6969/announce
  • udp://9.rarbg.me:2710/announce
  • udp://9.rarbg.to:2710/announce
  • udp://public.popcorn-tracker.org:6969/announce
  • udp://tracker.torrent.eu.org:451/announce
  • udp://tracker.vanitycore.co:6969/announce
  • udp://ipv4.tracker.harry.lu:80/announce
  • udp://tracker.opentrackr.org:1337/announce
  • udp://exodus.desync.com:6969/announce
  • udp://tracker.cypherpunks.ru:6969/announce
SitemapDemonstrative Communication - 760 Words | Wooden Backgammon Set Folding Travel Board Game Dice Cup 30 Wooden Pieces | Welcome 2 Karachi (2015) HDRip Full Hindi Movie Watch Online Watch Welcome 2 Karachi (2015) HDRip Full Hindi Movie & Download Free. Hindi Movie Welcome 2 Karachi (2015) HDRip Full Cast and Crew Details. Film Name :- Welcome 2 Karachi (2015) HDRip Film Directed By :- Ashish R. Mohan Film Written by -- Kushal Ved Bakshi, Vrajesh Hirjee Starring of the Film :- Arshad Warsi, Lauren Gottlieb, Jacky Bhagnani Genres -: Adventure, Comedy, Crime, Thriller, War Origin ... Aho Girl | George Michael: Freedom George Michael: Freedom (2017) | Gestisci contenuti e dispositivi