Above Ground (2018) 720p HDRip x264 AAC by Full4movies

  • Category Movies
  • Type HD
  • Language English
  • Total size 807.7 MB
  • Uploaded By shmasti
  • Downloads 13
  • Last checked 11 minutes ago
  • Date uploaded 15 hours ago
  • Seeders 6
  • Leechers 2

Infohash : 2D9E916F7CA1A649C17204616E60194CBBFD6B89



General
Complete name                  : Above Ground (2018) 720p HDRip x264 AAC by Full4movies.mkv
Format                         : Matroska
Format version                 : Version 4 / Version 2
File size                      : 808 MiB
Duration                       : 1 h 30 min
Overall bit rate               : 1 248 kb/s
Movie name                     : www.Full4movies.co
Encoded date                   : UTC 2018-10-04 16:19:18
Writing application            : mkvmerge v8.1.0 ('Psychedelic Postcard') 32bit
Writing library                : libebml v1.3.1 + libmatroska v1.4.2

Video
ID                             : 1
Format                         : AVC
Format/Info                    : Advanced Video Codec
Format profile                 : [email protected]
Format settings, CABAC         : Yes
Format settings, RefFrames     : 5 frames
Codec ID                       : V_MPEG4/ISO/AVC
Duration                       : 1 h 30 min
Bit rate                       : 1 152 kb/s
Width                          : 1 280 pixels
Height                         : 544 pixels
Display aspect ratio           : 2.35:1
Original display aspect ratio  : 2.35:1
Frame rate mode                : Constant
Frame rate                     : 23.976 (24000/1001) FPS
Color space                    : YUV
Chroma subsampling             : 4:2:0
Bit depth                      : 8 bits
Scan type                      : Progressive
Bits/(Pixel*Frame)             : 0.069
Stream size                    : 746 MiB (92%)
Default                        : Yes
Forced                         : No
Color range                    : Limited
Color primaries                : BT.709
Transfer characteristics       : BT.709
Matrix coefficients            : BT.709

Audio
ID                             : 2
Format                         : AAC
Format/Info                    : Advanced Audio Codec
Format profile                 : LC
Codec ID                       : A_AAC
Duration                       : 1 h 30 min
Bit rate                       : 93.6 kb/s
Channel(s)                     : 2 channels
Channel positions              : Front: L R
Sampling rate                  : 48.0 kHz
Frame rate                     : 46.875 FPS (1024 SPF)
Compression mode               : Lossy
Delay relative to video        : -231 ms
Stream size                    : 60.6 MiB (8%)
Language                       : English
Default                        : Yes
Forced                         : No

Screen Shoots

Files:

  • Above Ground (2018) 720p HDRip x264 AAC by Full4movies.mkv (807.7 MB)

There are currently no comments. Feel free to leave one :)

Code:

  • udp://tracker.coppersurfer.tk:6969/announce
  • udp://tracker.opentrackr.org:1337/announce
  • udp://9.rarbg.me:2710/announce
  • udp://tracker.torrent.eu.org:451/announce
  • udp://open.stealth.si:80/announce
  • udp://public.popcorn-tracker.org:6969/announce
  • udp://p4p.arenabg.ch:1337/announce
  • udp://tracker.zer0day.to:1337/announce
  • udp://tracker.pirateparty.gr:6969/announce
  • udp://tracker.leechers-paradise.org:6969/announce
  • udp://tracker.tiny-vps.com:6969/announce
  • udp://bt.firebit.co.uk:6969/announce
  • udp://inferno.demonoid.pw:3397/announce
  • udp://shadowshq.yi.org:6969/announce
  • udp://9.rarbg.to:2780/announce
SitemapGoblin Slayer Episode 1 English Subbed | نیوزلند | Hawai police d etat tunderose 28-09-2017 36m:00s 0% | Качели 2016 | Movie Trailer Battle