Kalari (2018) Tamil - 720p - HDRip - x264 - 1.3GB - AC3 5.1 - M...

  • Category Movies
  • Type HD
  • Language Tamil
  • Total size 1.3 GB
  • Uploaded By MovCr
  • Downloads 177
  • Last checked 57 minutes ago
  • Date uploaded 1 day ago
  • Seeders 12
  • Leechers 5

Kalari

ActionDrama

A young man with agoraphobia tries to get his sister married to the right guy. When things go horribly wrong, can he overcome his fears and ensure that justice prevails?

Infohash : 3DB45C91A5F4849A4BD66171B13C7CBA68C0532B

http://movcr.cc

Kalari (2018) Tamil - 720p - HDRip - x264 - 1.3GB - AC3 5.1 - MovCr



Video
ID : 1
Format : AVC
Format/Info : Advanced Video Codec
Format profile : [email protected]
Format settings : CABAC / 4 Ref Frames
Format settings, CABAC : Yes
Format settings, RefFrames : 4 frames
Codec ID : V_MPEG4/ISO/AVC
Duration : 2 h 8 min
Bit rate : 1 356 kb/s
Width : 1 280 pixels
Height : 544 pixels
Display aspect ratio : 2.35:1
Frame rate mode : Constant
Frame rate : 29.970 (30000/1001) FPS
Color space : YUV
Chroma subsampling : 4:2:0
Bit depth : 8 bits
Scan type : Progressive
Bits/(Pixel*Frame) : 0.065
Stream size : 1.20 GiB (91%)
Title : www.MovCr.cc
Writing library : x264 core 155 r2901 7d0ff22
Encoding settings : cabac=1 / ref=1 / deblock=1:0:0 / analyse=0x1:0x111 / me=hex / subme=2 / psy=1 / psy_rd=1.00:0.00 / mixed_ref=0 / me_range=16 / chroma_me=1 / trellis=0 / 8x8dct=0 / cqm=0 / deadzone=21,11 / fast_pskip=1 / chroma_qp_offset=0 / threads=17 / lookahead_threads=4 / sliced_threads=0 / nr=0 / decimate=1 / interlaced=0 / bluray_compat=0 / constrained_intra=0 / bframes=3 / b_pyramid=2 / b_adapt=1 / b_bias=0 / direct=1 / weightb=1 / open_gop=0 / weightp=1 / keyint=300 / keyint_min=30 / scenecut=40 / intra_refresh=0 / rc_lookahead=10 / rc=abr / mbtree=1 / bitrate=1356 / ratetol=1.0 / qcomp=0.60 / qpmin=0 / qpmax=69 / qpstep=4 / vbv_maxrate=20000 / vbv_bufsize=25000 / nal_hrd=none / filler=0 / ip_ratio=1.40 / aq=1:1.00
Default : Yes
Forced : No
Color range : Limited
Color primaries : BT.709
Transfer characteristics : BT.709
Matrix coefficients : BT.709

Audio
ID : 2
Format : AC-3
Format/Info : Audio Coding 3
Commercial name : Dolby Digital
Codec ID : A_AC3
Duration : 2 h 8 min
Bit rate mode : Constant
Bit rate : 128 kb/s
Channel(s) : 2 channels
Channel layout : L R
Sampling rate : 48.0 kHz
Frame rate : 31.250 FPS (1536 SPF)
Bit depth : 16 bits
Compression mode : Lossy
Delay relative to video : -55 ms
Stream size : 118 MiB (9%)
Title : www.MovCr.cc
Service kind : Complete Main
Default : No
Forced : No







Files:

  • [MovCr.cc] - Kalari (2018) Tamil - 720p - HDRip - x264 - 1.3GB - AC3 5.1 - MovCr.mkv (1.3 GB)

There are currently no comments. Feel free to leave one :)

Code:

  • http://retracker.mgts.by:80/announce
  • http://retracker.telecom.by:80/announce
  • http://t.nyaatracker.com:80/announce
  • http://tracker.city9x.com:2710/announce
  • http://tracker.electro-torrent.pl:80/announce
  • udp://bt.xxx-tracker.com:2710/announce
  • udp://retracker.lanta-net.ru:2710/announce
  • udp://thetracker.org:80/announce
  • udp://tracker.coppersurfer.tk:6969/announce
  • udp://182.176.139.129:6969/announce
  • udp://5.79.83.193:6969/announce
  • udp://9.rarbg.me:2730/announce
  • udp://9.rarbg.to:2750/announce
  • udp://public.popcorn-tracker.org:6969/announce
  • udp://tracker.opentrackr.org:1337/announce
  • udp://tracker.internetwarriors.net:1337/announce
  • udp://tracker.coppersurfer.tk:6969/announce
SitemapWithin (Crawlspace) 2016 | Vistas: (34) Comentarios:(0) | BeeTV APK Latest Version Les musulmans d’Europe - En Bosnie-Herzégovine HDTV / 2018 | PSP但丁地狱 | Biography